Diamonds Are Forever Full Movie Download Free HD Download Diamonds Are Forever in 720p BluRay (900 MB)↓   Diamonds Are Forever Full Movie Download Free HD . James Bond's main goal is to discover who has been pirating precious stones, which are not re-showing up. He receives another personality as Peter Franks. He gets together with Tiffany Case, and goes about as though he is carrying the precious stones, yet ... | Full TV Series ford | Movies 3D

18+ Elizabeth Harvest 2018 UNCENSORED Movies HDRip x264 5.1 with ...

  • Category Movies
  • Type HD
  • Language English
  • Total size 847.2 MB
  • Uploaded By nehalpuja
  • Downloads 1009
  • Last checked 5 hours ago
  • Date uploaded 5 days ago
  • Seeders 18
  • Leechers 5

Infohash : 3FC039DE6DE4C0F4A2DE5627ADAFE11E24B5149A

18+ Elizabeth Harvest 2018 UNCENSORED Movies HDRip x264 5.1 with Sample ☻rDX☻
===============================================================================================

SCREEN SHOTS:



or

http://iphonehosting.eu/2018/8/honda/1.html

File size : 839 MiB
Duration : 1 h 48 min
Overall bit rate mode : Constant
Overall bit rate : 1 078 kb/s
Movie name : 18+ Elizabeth Harvest 2018 UNCENSORED Movies HDRip x264 5.1 ☻rDX☻

Video
ID : 2
Format : AVC
Format/Info : Advanced Video Codec
Format profile : [email protected]
Format settings, CABAC : Yes
Format settings, ReFrames : 2 frames
Format settings, GOP : M=1, N=12
Codec ID : V_MPEG4/ISO/AVC
Duration : 1 h 48 min
Bit rate mode : Constant
Bit rate : 695 kb/s
Width : 720 pixels
Height : 304 pixels
Display aspect ratio : 2.35:1
Frame rate mode : Constant
Frame rate : 23.976 FPS
Color space : YUV
Chroma subsampling : 4:2:0
Bit depth : 8 bits
Scan type : Progressive
Bits/(Pixel*Frame) : 0.132
Stream size : 523 MiB (62%)
Title : ☻rDX☻
Default : Yes
Forced : No

Audio
ID : 1
Format : AC-3
Format/Info : Audio Coding 3
Mode extension : CM (complete main)
Format settings, Endianness : Big
Codec ID : A_AC3
Duration : 1 h 48 min
Bit rate mode : Constant
Bit rate : 384 kb/s
Channel(s) : 6 channels
Channel positions : Front: L C R, Side: L R, LFE
Sampling rate : 48.0 kHz
Frame rate : 31.250 FPS (1536 spf)
Bit depth : 16 bits
Compression mode : Lossy
Stream size : 299 MiB (36%)
Title : ☻rDX☻
Default : Yes
Forced : No



IMDB : http://www.imdb.com/title/tt6852872

Files:

18+ Elizabeth Harvest 2018 UNCENSORED Movies HDRip x264 5.1 with Sample ☻rDX☻
  • Sample ~ 18+ Elizabeth Harvest 2018 UNCENSORED Movies HDRip x264 5.1 ☻rDX☻.mkv (8.3 MB)
  • 18+ Elizabeth Harvest 2018 UNCENSORED Movies HDRip x264 5.1 ☻rDX☻.mkv (838.9 MB)

There are currently no comments. Feel free to leave one :)

Code:

  • udp://tracker.coppersurfer.tk:6969/announce
  • udp://tracker.leechers-paradise.org:6969/announce
  • udp://tracker.pirateparty.gr:6969/announce
  • udp://eddie4.nl:6969/announce
  • udp://tracker.zer0day.to:1337/announce
  • udp://9.rarbg.me:2710/announce
  • udp://9.rarbg.to:2710/announce
  • udp://public.popcorn-tracker.org:6969/announce
  • udp://p4p.arenabg.ch:1337/announce
  • udp://tracker.vanitycore.co:6969/announce
  • udp://ipv4.tracker.harry.lu:80/announce
  • udp://tracker.opentrackr.org:1337/announce
  • udp://p4p.arenabg.com:1337/announce
  • udp://shadowshq.yi.org:6969/announce