Netsarang Xmanager Enterprise 5 Build 0787 | OK.ru VF Dvdrip | Martina Cole's The Runaway

American.Crime.Story.2x01.L.Uomo.Da.Copertina.ITA.ENG.1080p.WEB-D...

  • Category TV
  • Type HD
  • Language English
  • Total size 2.2 GB
  • Uploaded By ppb1
  • Downloads 324
  • Last checked 2 months ago
  • Date uploaded 7 months ago
  • Seeders 2
  • Leechers 2
80%
January 18, 2018, 4:00 am

American Crime Story

The eyes of the world turn to Miami Beach, Florida, following the murder of fashion designer Gianni Versace.

Infohash : 825CBE26BB6559A802837BE3513F87CB9C929259



GIUSEPPEiCV & LITTLELINX
HANNO IL PIACERE DI PRESENTARE


WEB-DLMux 1080p
Dual Language: ITA - ENG
Sub ITA - ENG
Trovi tutte le nostre release su
IL CORSARO VERDE
www.icv-crew.org





.: Dati Serie :.

Titolo originale American Crime Story
Paese Stati Uniti d'America
Anno 2016 – in produzione
Formato serie TV
Genere drammatico, giallo, giudiziario, antologico
Stagioni 2
Episodi 9
Durata 45 min (episodio)


.: Trama :.

An anthology series centered around America's most notorious crimes and criminals.

La seconda stagione, intitolata L'assassinio di Gianni Versace, si occuperà dell'omicidio del celebre stilista italiano, freddato con due colpi di pistola sulla scalinata esterna della sua villa di Miami il 15 luglio 1997.

Dell'omicidio venne accusato Andrew Cunanan, trovato morto pochi giorni dopo a bordo di una casa galleggiante.

Con un cast di star, da Penélope Cruz (nei panni di Donatella Versace) a Ricky Martin (Antonio D'Amico), da Edgar Ramirez (Gianni Versace) a Darren Criss, (Andrew Cunanan), la seconda stagione di American Crime Story ricostruisce accuratamente i drammatici eventi che portarono all'omicidio di Gianni Versace.

L'attore italiano Giovanni Cirfiera interpreta il maggiore dei fratelli Versace, Santo.

Basata sul libro della giornalista Maureen Orth: Vulgar Favors, la ricostruzione è prodotta da Ryan Murphy, che ne ha diretto personalmente il primo episodio.


[center].: Screenshot :.






.: Caratteristiche Tecniche :.


[spoiler]
American.Crime.Story.2x01.L.Uomo.Da.Copertina.ITA.ENG.1080p.WEB-DLMux.H264-Morpheus.mkv
Format : Matroska
Format version : Version 4 / Version 2
File size : 2.16 GiB
Duration : 51mn 15s
Overall bit rate : 6 023 Kbps
Encoded date : UTC 2018-01-20 15:48:06
Writing application : mkvmerge v7.6.0 ('Garden of Dreams') 64bit built on Feb 8 2015 15:12:28
Writing library : libebml v1.3.1 + libmatroska v1.4.2
DURATION : 00:51:15.392000000
NUMBER_OF_FRAMES : 96106
NUMBER_OF_BYTES : 147618816
_STATISTICS_WRITING_APP : mkvmerge v7.6.0 ('Garden of Dreams') 64bit built on Feb 8 2015 15:12:28
_STATISTICS_WRITING_DATE_UTC : 2018-01-20 15:48:06
_STATISTICS_TAGS : BPS DURATION NUMBER_OF_FRAMES NUMBER_OF_BYTES

Video
ID : 1
Format : AVC
Format/Info : Advanced Video Codec
Format profile : [email protected]
Format settings, CABAC : Yes
Format settings, ReFrames : 4 frames
Codec ID : V_MPEG4/ISO/AVC
Duration : 51mn 15s
Bit rate : 5 327 Kbps
Width : 1 920 pixels
Height : 1 080 pixels
Display aspect ratio : 16:9
Frame rate : 25.000 fps
Color space : YUV
Chroma subsampling : 4:2:0
Bit depth : 8 bits
Scan type : Progressive
Bits/(Pixel*Frame) : 0.103
Stream size : 1.91 GiB (88%)
Language : English
Default : Yes
Forced : No
Color primaries : BT.709-5, BT.1361, IEC 61966-2-4, SMPTE RP177
Transfer characteristics : BT.709-5, BT.1361
Matrix coefficients : BT.709-5, BT.1361, IEC 61966-2-4 709, SMPTE RP177

Audio #1
ID : 2
Format : AC-3
Format/Info : Audio Coding 3
Mode extension : CM (complete main)
Codec ID : A_AC3
Duration : 51mn 15s
Bit rate mode : Constant
Bit rate : 192 Kbps
Channel(s) : 2 channels
Channel positions : Front: L R
Sampling rate : 48.0 KHz
Bit depth : 16 bits
Compression mode : Lossy
Stream size : 70.4 MiB (3%)
Title : ITA
Language : Italian
Default : Yes
Forced : Yes

Audio #2
ID : 3
Format : AC-3
Format/Info : Audio Coding 3
Mode extension : CM (complete main)
Codec ID : A_AC3
Duration : 51mn 15s
Bit rate mode : Constant
Bit rate : 384 Kbps
Channel(s) : 6 channels
Channel positions : Front: L C R, Side: L R, LFE
Sampling rate : 48.0 KHz
Bit depth : 16 bits
Compression mode : Lossy
Stream size : 141 MiB (6%)
Title : ENG
Language : English
Default : No
Forced : No

Text #1
ID : 4
Format : UTF-8
Codec ID : S_TEXT/UTF8
Codec ID/Info : UTF-8 Plain Text
Title : ITA - Forced
Language : Italian
Default : Yes
Forced : Yes

Text #2
ID : 5
Format : UTF-8
Codec ID : S_TEXT/UTF8
Codec ID/Info : UTF-8 Plain Text
Language : Italian
Default : No
Forced : No

Text #3
ID : 6
Format : UTF-8
Codec ID : S_TEXT/UTF8
Codec ID/Info : UTF-8 Plain Text
Language : English
Default : No
Forced : No


[/spoiler]

.: Ringraziamenti :.




RESTATE IN SEED ALTRIMENTI






[/center]

Files:

  • American.Crime.Story.2x01.L.Uomo.Da.Copertina.ITA.ENG.1080p.WEB-DLMux.H264-Morpheus.mkv (2.2 GB)

There are currently no comments. Feel free to leave one :)

Code:

  • http://tracker.tntvillage.scambioetico.org:2710/announce
  • udp://tracker.opentrackr.org:1337/announce
  • udp://9.rarbg.me:2710/announce
  • udp://tracker.leechers-paradise.org:6969/announce
  • http://tracker.tfile.me/announce
  • udp://explodie.org:6969/announce
  • udp://public.popcorn-tracker.org:6969/announce
  • http://torrentsmd.com:8080/announce